亿格瑞高清播放机用户论坛

 找回密码
 立即注册

QQ登录

只需一步,快速开始

查看: 666|回复: 4

[A5] A5 播放 HEVC 10bit 直接卡屏死机 跪求解决 (三天内的新机)

[复制链接]

3

主题

8

帖子

66

积分

注册会员

Rank: 2

积分
66
发表于 2018-5-11 07:21:21 | 显示全部楼层 |阅读模式

马上注册亿格瑞论坛,与更多影音发烧友交流畅谈,一同探索影音极致境界!

您需要 登录 才可以下载或查看,没有帐号?立即注册

x
本帖最后由 ARay 于 2018-5-11 07:41 编辑

型号 A5 (三天内的新机)
固件版本 v1.2.9.0

问题片源 链接:https://pan.baidu.com/s/1bMme8YIBrYlVn-3Ngzh44w 密码:37jo

这个片段是我用MeGUI自己压制的,
电脑上看完全正常,
但A5每次播放立刻卡死在加载界面的小圈圈那,

微信图片_20180511071935.jpg

为了备份旧DVD老片, 同参数如法压制了不少影片, A5大部分不能播放, 只有少数几部没问题, BDRip重压的没有这种问题, 实在诡异.
压制软件是用的:
MeGUI v2836,
x265 v2.7+1-2aa737a99f51 Windows GCC 7.3.0 64 bit 10bit
FFmpeg v3.4.2


附上 The.Blue.Kite.1993.FRE.D9.HEVC.10bit.MiniSD.Clip MediaInfo
  1. General
  2. Unique ID                   : 5844752048627110735234069518433043856 (0x465A886451BEFD5A019E3A0B6CEC590)
  3. Complete name               : The.Blue.Kite.1993.FRE.D9.HEVC.10bit.MiniSD.Clip.mkv
  4. Format                      : Matroska
  5. Format version              : Version 4 / Version 2
  6. File size                   : 26.5 MiB
  7. Duration                    : 3 min 0 s
  8. Overall bit rate            : 1 236 kb/s
  9. Encoded date                : UTC 2018-05-10 22:38:21
  10. Writing application         : mkvmerge v23.0.0 ('The Bride Said No') 64-bit
  11. Writing library             : libebml v1.3.6 + libmatroska v1.4.9

  12. Video
  13. ID                          : 1
  14. Format                      : HEVC
  15. Format/Info                 : High Efficiency Video Coding
  16. Format profile              : Main 10@L3@Main
  17. Codec ID                    : V_MPEGH/ISO/HEVC
  18. Duration                    : 2 min 59 s
  19. Bit rate                    : 1 141 kb/s
  20. Width                       : 720 pixels
  21. Height                      : 576 pixels
  22. Display aspect ratio        : 1.85:1
  23. Original display aspect rat : 1.85:1
  24. Frame rate mode             : Constant
  25. Frame rate                  : 25.000 FPS
  26. Standard                    : PAL
  27. Color space                 : YUV
  28. Chroma subsampling          : 4:2:0
  29. Bit depth                   : 10 bits
  30. Bits/(Pixel*Frame)          : 0.110
  31. Stream size                 : 24.5 MiB (92%)
  32. Writing library             : x265 2.7+1-2aa737a99f51:[Windows][GCC 7.3.0][64 bit] 10bit
  33. Encoding settings           : cpuid=1050111 / frame-threads=2 / numa-pools=4 / wpp / no-pmode / no-pme / no-psnr / no-ssim / log-level=2 / input-csp=1 / input-res=720x576 / interlace=0 / total-frames=4499 / level-idc=0 / high-tier=1 / uhd-bd=0 / ref=5 / no-allow-non-conformance / no-repeat-headers / annexb / no-aud / no-hrd / info / hash=0 / no-temporal-layers / no-open-gop / min-keyint=25 / keyint=250 / gop-lookahead=0 / bframes=6 / b-adapt=2 / b-pyramid / bframe-bias=0 / rc-lookahead=25 / lookahead-slices=0 / scenecut=40 / radl=0 / no-intra-refresh / ctu=32 / min-cu-size=8 / no-rect / no-amp / max-tu-size=16 / tu-inter-depth=3 / tu-intra-depth=3 / limit-tu=0 / rdoq-level=1 / dynamic-rd=0.00 / no-ssim-rd / signhide / no-tskip / nr-intra=0 / nr-inter=0 / no-constrained-intra / no-strong-intra-smoothing / max-merge=3 / limit-refs=3 / limit-modes / me=3 / subme=5 / merange=24 / temporal-mvp / weightp / no-weightb / no-analyze-src-pics / deblock=-1:-1 / no-sao / no-sao-non-deblock / rd=4 / no-early-skip / rskip / no-fast-intra / no-tskip-fast / no-cu-lossless / no-b-intra / no-splitrd-skip / rdpenalty=2 / psy-rd=1.50 / psy-rdoq=2.00 / no-rd-refine / no-lossless / cbqpoffs=0 / crqpoffs=0 / rc=crf / crf=21.6 / qcomp=0.60 / qpstep=4 / stats-write=0 / stats-read=0 / ipratio=1.40 / pbratio=1.30 / aq-mode=1 / aq-strength=0.90 / cutree / zone-count=0 / no-strict-cbr / qg-size=32 / no-rc-grain / qpmax=69 / qpmin=0 / no-const-vbv / sar=255 / sar-width / : / sar-height=37:25 / overscan=0 / videoformat=5 / range=0 / colorprim=2 / transfer=2 / colormatrix=2 / chromaloc=0 / display-window=0 / max-cll=0,0 / min-luma=0 / max-luma=1023 / log2-max-poc-lsb=8 / vui-timing-info / vui-hrd-info / slices=1 / no-opt-qp-pps / no-opt-ref-list-length-pps / no-multi-pass-opt-rps / scenecut-bias=0.05 / no-opt-cu-delta-qp / no-aq-motion / no-hdr / no-hdr-opt / no-dhdr10-opt / analysis-reuse-level=5 / scale-factor=0 / refine-intra=0 / refine-inter=0 / refine-mv=0 / no-limit-sao / ctu-info=0 / no-lowpass-dct / refine-mv-type=0 / copy-pic=1
  34. Default                     : Yes
  35. Forced                      : No

  36. Audio
  37. ID                          : 2
  38. Format                      : AAC
  39. Format/Info                 : Advanced Audio Codec
  40. Format profile              : LC
  41. Codec ID                    : A_AAC-2
  42. Duration                    : 3 min 0 s
  43. Bit rate                    : 93.4 kb/s
  44. Channel(s)                  : 2 channels
  45. Channel positions           : Front: L R
  46. Sampling rate               : 48.0 kHz
  47. Frame rate                  : 46.875 FPS (1024 SPF)
  48. Compression mode            : Lossy
  49. Delay relative to video     : 9 ms
  50. Stream size                 : 2.00 MiB (8%)
  51. Default                     : Yes
  52. Forced                      : No

  53. Menu
  54. 00:00:00.054                : en:00:00:00.054

复制代码



回复

使用道具 举报

80

主题

139

帖子

924

积分

管理员

Rank: 9Rank: 9Rank: 9

积分
924
发表于 2018-5-11 08:28:17 | 显示全部楼层
你这是自己压制的片子方法不正确导致的,请参考网上发布的成品影片的参数,参照进行

请参照如下标准压缩:

非HDR的片子,Color primaries 可以用BT.709

General
Unique ID                      : 191719308512309095508367261199402763718 (0x903BCBB42E8EBB06A7A13F898EFF85C6)
Complete name                  : Z:\downloads\【4K】【湮灭】【原中】Annihilation.2018.2160p.NF.WEBRip.x265.10bit.HDR.DD5.1-TrollUHD.mkv
Format                         : Matroska
Format version                 : Version 4 / Version 2
File size                      : 14.8 GiB
Duration                       : 1h 55mn
Overall bit rate               : 18.4 Mbps
Encoded date                   : UTC 2018-03-19 20:16:24
Writing application            : mkvmerge v21.0.0 ('Tardigrades Will Inherit The Earth') 64-bit
Writing library                : libebml v1.3.5 + libmatroska v1.4.8
DURATION                       : 01:47:34.364000000
NUMBER_OF_FRAMES               : 924
NUMBER_OF_BYTES                : 22816
_STATISTICS_WRITING_APP        : mkvmerge v21.0.0 ('Tardigrades Will Inherit The Earth') 64-bit
_STATISTICS_WRITING_DATE_UTC   : 2018-03-19 20:16:24
_STATISTICS_TAGS               : BPS DURATION NUMBER_OF_FRAMES NUMBER_OF_BYTES

Video
ID                             : 1
Format                         : HEVC
Format/Info                    : High Efficiency Video Coding
Format profile                 : Main 10@L5@Main
Codec ID                       : V_MPEGH/ISO/HEVC
Duration                       : 1h 55mn
Bit rate                       : 17.6 Mbps
Width                          : 3 840 pixels
Height                         : 1 606 pixels
Display aspect ratio           : 2.40:1
Frame rate mode                : Constant
Frame rate                     : 23.976 fps
Color space                    : YUV
Chroma subsampling             : 4:2:0
Bit depth                      : 10 bits
Bits/(Pixel*Frame)             : 0.119
Stream size                    : 14.2 GiB (96%)
Writing library                : x265 2.6+27-2f3c4158cf35:[Windows][GCC 6.3.0][64 bit] 10bit
Encoding settings              : cpuid=1173503 / frame-threads=4 / numa-pools=28 / wpp / no-pmode / no-pme / no-psnr / no-ssim / log-level=2 / input-csp=1 / input-res=3840x1606 / interlace=0 / total-frames=165562 / level-idc=0 / high-tier=1 / uhd-bd=0 / ref=5 / no-allow-non-conformance / repeat-headers / annexb / no-aud / no-hrd / info / hash=0 / no-temporal-layers / open-gop / min-keyint=23 / keyint=250 / gop-lookahead=0 / bframes=8 / b-adapt=2 / b-pyramid / bframe-bias=0 / rc-lookahead=40 / lookahead-slices=0 / scenecut=40 / radl=0 / no-intra-refresh / ctu=64 / min-cu-size=8 / rect / amp / max-tu-size=32 / tu-inter-depth=3 / tu-intra-depth=3 / limit-tu=4 / rdoq-level=2 / dynamic-rd=0.00 / no-ssim-rd / signhide / no-tskip / nr-intra=0 / nr-inter=0 / no-constrained-intra / strong-intra-smoothing / max-merge=4 / limit-refs=1 / limit-modes / me=3 / subme=5 / merange=57 / temporal-mvp / weightp / weightb / no-analyze-src-pics / deblock=-3:-3 / sao / no-sao-non-deblock / rd=6 / no-early-skip / rskip / no-fast-intra / no-tskip-fast / no-cu-lossless / b-intra / no-splitrd-skip / rdpenalty=0 / psy-rd=2.00 / psy-rdoq=1.00 / no-rd-refine / no-lossless / cbqpoffs=0 / crqpoffs=0 / rc=crf / crf=16.0 / qcomp=0.80 / qpstep=4 / stats-write=0 / stats-read=0 / ipratio=1.40 / pbratio=1.30 / aq-mode=3 / aq-strength=1.00 / cutree / zone-count=0 / no-strict-cbr / qg-size=16 / no-rc-grain / qpmax=69 / qpmin=0 / no-const-vbv / sar=0 / overscan=0 / videoformat=5 / range=0 / colorprim=9 / transfer=16 / colormatrix=9 / chromaloc=0 / display-window=0 / master-display=G(34000,16000)B(13250,34500)R(7500,3000)WP(15635,16450)L(40000000,50) / max-cll=0,0 / min-luma=0 / max-luma=1023 / log2-max-poc-lsb=8 / vui-timing-info / vui-hrd-info / slices=1 / no-opt-qp-pps / no-opt-ref-list-length-pps / no-multi-pass-opt-rps / scenecut-bias=0.05 / no-opt-cu-delta-qp / no-aq-motion / hdr / hdr-opt / no-dhdr10-opt / analysis-save=(null) / analysis-load=(null) / analysis-reuse-level=5 / scale-factor=0 / refine-intra=0 / refine-inter=0 / refine-mv=0 / no-limit-sao / ctu-info=0 / no-lowpass-dct / refine-mv-type=0 / copy-pic=1
Default                        : Yes
Forced                         : No
Color range                    : Limited
Color primaries                : BT.2020
Matrix coefficients            : BT.2020 non-constant

Audio
ID                             : 2
Format                         : AC-3
Format/Info                    : Audio Coding 3
Mode extension                 : CM (complete main)
Format settings, Endianness    : Big
Codec ID                       : A_AC3
Duration                       : 1h 55mn
Bit rate mode                  : Constant
Bit rate                       : 384 Kbps
Channel(s)                     : 6 channels
Channel positions              : Front: L C R, Side: L R, LFE
Sampling rate                  : 48.0 KHz
Compression mode               : Lossy
Stream size                    : 317 MiB (2%)
Title                          : English
Language                       : English
Default                        : Yes
Forced                         : No

Text #1
ID                             : 3
Format                         : UTF-8
Codec ID                       : S_TEXT/UTF8
Codec ID/Info                  : UTF-8 Plain Text
Language                       : English
Default                        : Yes
Forced                         : No

Text #2
ID                             : 4
Format                         : UTF-8
Codec ID                       : S_TEXT/UTF8
Codec ID/Info                  : UTF-8 Plain Text
Title                          : SDH
Language                       : English
Default                        : No
Forced                         : No

Text #3
ID                             : 5
Format                         : UTF-8
Codec ID                       : S_TEXT/UTF8
Codec ID/Info                  : UTF-8 Plain Text
Language                       : Arabic
Default                        : No
Forced                         : No

Text #4
ID                             : 6
Format                         : UTF-8
Codec ID                       : S_TEXT/UTF8
Codec ID/Info                  : UTF-8 Plain Text
Language                       : Danish
Default                        : No
Forced                         : No

Text #5
ID                             : 7
Format                         : UTF-8
Codec ID                       : S_TEXT/UTF8
Codec ID/Info                  : UTF-8 Plain Text
Language                       : German
Default                        : No
Forced                         : No

Text #6
ID                             : 8
Format                         : UTF-8
Codec ID                       : S_TEXT/UTF8
Codec ID/Info                  : UTF-8 Plain Text
Language                       : Greek
Default                        : No
Forced                         : No

Text #7
ID                             : 9
Format                         : UTF-8
Codec ID                       : S_TEXT/UTF8
Codec ID/Info                  : UTF-8 Plain Text
Language                       : Spanish
Default                        : No
Forced                         : No

Text #8
ID                             : 10
Format                         : UTF-8
Codec ID                       : S_TEXT/UTF8
Codec ID/Info                  : UTF-8 Plain Text
Title                          : European
Language                       : Spanish
Default                        : No
Forced                         : No

Text #9
ID                             : 11
Format                         : UTF-8
Codec ID                       : S_TEXT/UTF8
Codec ID/Info                  : UTF-8 Plain Text
Language                       : Finnish
Default                        : No
Forced                         : No

Text #10
ID                             : 12
Format                         : UTF-8
Codec ID                       : S_TEXT/UTF8
Codec ID/Info                  : UTF-8 Plain Text
Language                       : French
Default                        : No
Forced                         : No

Text #11
ID                             : 13
Format                         : UTF-8
Codec ID                       : S_TEXT/UTF8
Codec ID/Info                  : UTF-8 Plain Text
Language                       : Hebrew
Default                        : No
Forced                         : No

Text #12
ID                             : 14
Format                         : UTF-8
Codec ID                       : S_TEXT/UTF8
Codec ID/Info                  : UTF-8 Plain Text
Language                       : Hindi
Default                        : No
Forced                         : No

Text #13
ID                             : 15
Format                         : UTF-8
Codec ID                       : S_TEXT/UTF8
Codec ID/Info                  : UTF-8 Plain Text
Language                       : Italian
Default                        : No
Forced                         : No

Text #14
ID                             : 16
Format                         : UTF-8
Codec ID                       : S_TEXT/UTF8
Codec ID/Info                  : UTF-8 Plain Text
Language                       : Japanese
Default                        : No
Forced                         : No

Text #15
ID                             : 17
Format                         : UTF-8
Codec ID                       : S_TEXT/UTF8
Codec ID/Info                  : UTF-8 Plain Text
Language                       : Korean
Default                        : No
Forced                         : No

Text #16
ID                             : 18
Format                         : UTF-8
Codec ID                       : S_TEXT/UTF8
Codec ID/Info                  : UTF-8 Plain Text
Language                       : Norwegian Bokmal
Default                        : No
Forced                         : No

Text #17
ID                             : 19
Format                         : UTF-8
Codec ID                       : S_TEXT/UTF8
Codec ID/Info                  : UTF-8 Plain Text
Language                       : Dutch
Default                        : No
Forced                         : No

Text #18
ID                             : 20
Format                         : UTF-8
Codec ID                       : S_TEXT/UTF8
Codec ID/Info                  : UTF-8 Plain Text
Language                       : Polish
Default                        : No
Forced                         : No

Text #19
ID                             : 21
Format                         : UTF-8
Codec ID                       : S_TEXT/UTF8
Codec ID/Info                  : UTF-8 Plain Text
Language                       : Portuguese
Default                        : No
Forced                         : No

Text #20
ID                             : 22
Format                         : UTF-8
Codec ID                       : S_TEXT/UTF8
Codec ID/Info                  : UTF-8 Plain Text
Title                          : Brazilian
Language                       : Portuguese
Default                        : No
Forced                         : No

Text #21
ID                             : 23
Format                         : UTF-8
Codec ID                       : S_TEXT/UTF8
Codec ID/Info                  : UTF-8 Plain Text
Language                       : Romanian
Default                        : No
Forced                         : No

Text #22
ID                             : 24
Format                         : UTF-8
Codec ID                       : S_TEXT/UTF8
Codec ID/Info                  : UTF-8 Plain Text
Language                       : Swedish
Default                        : No
Forced                         : No

Text #23
ID                             : 25
Format                         : UTF-8
Codec ID                       : S_TEXT/UTF8
Codec ID/Info                  : UTF-8 Plain Text
Language                       : Thai
Default                        : No
Forced                         : No

Text #24
ID                             : 26
Format                         : UTF-8
Codec ID                       : S_TEXT/UTF8
Codec ID/Info                  : UTF-8 Plain Text
Language                       : Turkish
Default                        : No
Forced                         : No

Text #25
ID                             : 27
Format                         : UTF-8
Codec ID                       : S_TEXT/UTF8
Codec ID/Info                  : UTF-8 Plain Text
Title                          : Simplified
Language                       : Chinese
Default                        : No
Forced                         : No

Text #26
ID                             : 28
Format                         : UTF-8
Codec ID                       : S_TEXT/UTF8
Codec ID/Info                  : UTF-8 Plain Text
Title                          : Traditional
Language                       : Chinese
Default                        : No
Forced                         : No

为了更好的使用机器,获得使用经验技巧和故障排除方法,请加入“亿格瑞官方粉丝18群”,群号:662557185
回复 支持 反对

使用道具 举报

3

主题

8

帖子

66

积分

注册会员

Rank: 2

积分
66
 楼主| 发表于 2018-5-11 14:30:24 | 显示全部楼层
本帖最后由 ARay 于 2018-5-11 23:50 编辑
杨志刚Sky 发表于 2018-5-11 08:28
你这是自己压制的片子方法不正确导致的,请参考网上发布的成品影片的参数,参照进行

请参照如下标准压缩 ...

Sky大您应该并没有在您的机器上实测,

您的说法不对, HEVC.10bit默认是YUV420P10le颜色编码格式, 也即BT.709色域空间标准

我多次比较测试有问题和没有问题的视频,
发现与设定的高宽比及视频比例有关,
我以同样环境, 同样参数再压制了一遍, 没有出现卡死的问题了,

重设比例片源 链接:https://pan.baidu.com/s/1ZT1_Ej3yFsduOwQcocbdCQ 密码:ke3j

三个视频唯一区别在于:

  1. The.Blue.Kite.1993.FRE.D9.HEVC.10bit.MiniSD.Clip.888x480P.mkv (没问题的)
  2. Width                       : 888 pixels
  3. Height                      : 480 pixels
  4. Display aspect ratio        : 1.85:1

  5. The.Blue.Kite.1993.FRE.D9.HEVC.10bit.MiniSD.Clip.704x412P.mkv (没问题的)
  6. Width                       : 704 pixels
  7. Height                      : 412 pixels
  8. Display aspect ratio        : 1.85:1

  9. The.Blue.Kite.1993.FRE.D9.HEVC.10bit.MiniSD.Clip.mkv (卡死的)
  10. Width                       : 720 pixels
  11. Height                      : 576 pixels
  12. Display aspect ratio        : 1.85:1
复制代码



另外, 我还试着以同样方式重新压了一个x254版本的视频, 高宽比也是720 x576, 1.85:1 , 完全没问题.

所以问题症结还是A5对HEVC视频比例识别的老问题上, 是A5兼容性问题.



附上 The.Blue.Kite.1993.FRE.D9.HEVC.10bit.MiniSD.Clip MediaInfo

  1. General
  2. Unique ID                   : 189780911194357024893611664658363673856 (0x8EC67956600BFDA865B8186AF7416D00)
  3. Complete name               : D:\Encodec\Queue\The.Blue.Kite.1993\The.Blue.Kite.1993.FRE.D9.HEVC.10bit.MiniSD.Clip.888x480P.mkv
  4. Format                      : Matroska
  5. Format version              : Version 4 / Version 2
  6. File size                   : 26.7 MiB
  7. Duration                    : 3 min 0 s
  8. Overall bit rate            : 1 245 kb/s
  9. Encoded date                : UTC 2018-05-10 23:46:34
  10. Writing application         : mkvmerge v23.0.0 ('The Bride Said No') 64-bit
  11. Writing library             : libebml v1.3.6 + libmatroska v1.4.9

  12. Video
  13. ID                          : 1
  14. Format                      : HEVC
  15. Format/Info                 : High Efficiency Video Coding
  16. Format profile              : Main 10@L3@Main
  17. Codec ID                    : V_MPEGH/ISO/HEVC
  18. Duration                    : 2 min 59 s
  19. Bit rate                    : 1 149 kb/s
  20. [color=Red]Width                       : 888 pixels
  21. Height                      : 480 pixels
  22. Display aspect ratio        : 1.85:1[/color]
  23. Frame rate mode             : Constant
  24. Frame rate                  : 25.000 FPS
  25. Color space                 : YUV
  26. Chroma subsampling          : 4:2:0
  27. Bit depth                   : 10 bits
  28. Bits/(Pixel*Frame)          : 0.108
  29. Stream size                 : 24.7 MiB (92%)
  30. Writing library             : x265 2.7+1-2aa737a99f51:[Windows][GCC 7.3.0][64 bit] 10bit
  31. Encoding settings           : cpuid=1050111 / frame-threads=2 / numa-pools=4 / wpp / no-pmode / no-pme / no-psnr / no-ssim / log-level=2 / input-csp=1 / input-res=888x480 / interlace=0 / total-frames=4499 / level-idc=0 / high-tier=1 / uhd-bd=0 / ref=5 / no-allow-non-conformance / no-repeat-headers / annexb / no-aud / no-hrd / info / hash=0 / no-temporal-layers / no-open-gop / min-keyint=25 / keyint=250 / gop-lookahead=0 / bframes=6 / b-adapt=2 / b-pyramid / bframe-bias=0 / rc-lookahead=25 / lookahead-slices=0 / scenecut=40 / radl=0 / no-intra-refresh / ctu=32 / min-cu-size=8 / no-rect / no-amp / max-tu-size=16 / tu-inter-depth=3 / tu-intra-depth=3 / limit-tu=0 / rdoq-level=1 / dynamic-rd=0.00 / no-ssim-rd / signhide / no-tskip / nr-intra=0 / nr-inter=0 / no-constrained-intra / no-strong-intra-smoothing / max-merge=3 / limit-refs=3 / limit-modes / me=3 / subme=5 / merange=24 / temporal-mvp / weightp / no-weightb / no-analyze-src-pics / deblock=-1:-1 / no-sao / no-sao-non-deblock / rd=4 / no-early-skip / rskip / no-fast-intra / no-tskip-fast / no-cu-lossless / no-b-intra / no-splitrd-skip / rdpenalty=2 / psy-rd=1.50 / psy-rdoq=2.00 / no-rd-refine / no-lossless / cbqpoffs=0 / crqpoffs=0 / rc=crf / crf=21.6 / qcomp=0.60 / qpstep=4 / stats-write=0 / stats-read=0 / ipratio=1.40 / pbratio=1.30 / aq-mode=1 / aq-strength=0.90 / cutree / zone-count=0 / no-strict-cbr / qg-size=32 / no-rc-grain / qpmax=69 / qpmin=0 / no-const-vbv / sar=1 / overscan=0 / videoformat=5 / range=0 / colorprim=2 / transfer=2 / colormatrix=2 / chromaloc=0 / display-window=0 / max-cll=0,0 / min-luma=0 / max-luma=1023 / log2-max-poc-lsb=8 / vui-timing-info / vui-hrd-info / slices=1 / no-opt-qp-pps / no-opt-ref-list-length-pps / no-multi-pass-opt-rps / scenecut-bias=0.05 / no-opt-cu-delta-qp / no-aq-motion / no-hdr / no-hdr-opt / no-dhdr10-opt / analysis-reuse-level=5 / scale-factor=0 / refine-intra=0 / refine-inter=0 / refine-mv=0 / no-limit-sao / ctu-info=0 / no-lowpass-dct / refine-mv-type=0 / copy-pic=1
  32. Default                     : Yes
  33. Forced                      : No

  34. Audio
  35. ID                          : 2
  36. Format                      : AAC
  37. Format/Info                 : Advanced Audio Codec
  38. Format profile              : LC
  39. Codec ID                    : A_AAC-2
  40. Duration                    : 3 min 0 s
  41. Bit rate                    : 93.4 kb/s
  42. Channel(s)                  : 2 channels
  43. Channel positions           : Front: L R
  44. Sampling rate               : 48.0 kHz
  45. Frame rate                  : 46.875 FPS (1024 SPF)
  46. Compression mode            : Lossy
  47. Delay relative to video     : 9 ms
  48. Stream size                 : 2.00 MiB (8%)
  49. Default                     : Yes
  50. Forced                      : No

  51. Menu
  52. 00:00:00.054                : en:00:00:00.054

复制代码






这是x264的 The.Blue.Kite.1993.FRE.D9.MiniSD-Aray.mkv MediaInfo

  1. General
  2. Unique ID                   : 298641036926812114783020758305944205355 (0xE0AC2BEB9E9FCD76692760D0B60D782B)
  3. Complete name               : The.Blue.Kite.1993.FRE.D9.MiniSD-Aray.mkv
  4. Format                      : Matroska
  5. Format version              : Version 4 / Version 2
  6. File size                   : 949 MiB
  7. Duration                    : 2 h 14 min
  8. Overall bit rate            : 987 kb/s
  9. Encoded date                : UTC 2018-05-11 02:43:13
  10. Writing application         : mkvmerge v22.0.0 ('At The End Of The World') 64-bit
  11. Writing library             : libebml v1.3.5 + libmatroska v1.4.8

  12. Video
  13. ID                          : 1
  14. Format                      : AVC
  15. Format/Info                 : Advanced Video Codec
  16. Format profile              : High@L3.1
  17. Format settings             : CABAC / 9 Ref Frames
  18. Format settings, CABAC      : Yes
  19. Format settings, ReFrames   : 9 frames
  20. Codec ID                    : V_MPEG4/ISO/AVC
  21. Duration                    : 2 h 14 min
  22. Bit rate                    : 986 kb/s
  23. [color=Red]Width                       : 720 pixels
  24. Height                      : 576 pixels
  25. Display aspect ratio        : 1.85:1[/color]
  26. Original display aspect rat : 1.85:1
  27. Frame rate mode             : Constant
  28. Frame rate                  : 25.000 FPS
  29. Standard                    : PAL
  30. Color space                 : YUV
  31. Chroma subsampling          : 4:2:0
  32. Bit depth                   : 8 bits
  33. Scan type                   : Progressive
  34. Bits/(Pixel*Frame)          : 0.095
  35. Stream size                 : 947 MiB (100%)
  36. Writing library             : x264 core 155 r2901 7d0ff22
  37. Encoding settings           : cabac=1 / ref=9 / deblock=1:-3:-3 / analyse=0x3:0x133 / me=umh / subme=10 / psy=1 / psy_rd=1.00:0.15 / mixed_ref=1 / me_range=16 / chroma_me=1 / trellis=2 / 8x8dct=1 / cqm=0 / deadzone=21,11 / fast_pskip=1 / chroma_qp_offset=-3 / threads=6 / lookahead_threads=1 / sliced_threads=0 / nr=0 / decimate=1 / interlaced=0 / bluray_compat=0 / constrained_intra=0 / bframes=9 / b_pyramid=2 / b_adapt=2 / b_bias=0 / direct=3 / weightb=1 / open_gop=0 / weightp=2 / keyint=250 / keyint_min=25 / scenecut=40 / intra_refresh=0 / rc_lookahead=60 / rc=crf / mbtree=1 / crf=21.6 / qcomp=0.60 / qpmin=0 / qpmax=69 / qpstep=4 / ip_ratio=1.40 / aq=3:1.00
  38. Default                     : Yes
  39. Forced                      : No

复制代码

回复 支持 反对

使用道具 举报

0

主题

6

帖子

26

积分

新手上路

Rank: 1

积分
26
发表于 2018-6-19 20:14:39 | 显示全部楼层
都是高手,偶表示严重D看不懂
回复 支持 反对

使用道具 举报

0

主题

3

帖子

9

积分

新手上路

Rank: 1

积分
9
发表于 2018-6-20 11:35:45 | 显示全部楼层
我也表示看不明白。
回复 支持 反对

使用道具 举报

您需要登录后才可以回帖 登录 | 立即注册

本版积分规则

以旧换新活动,长期有效

QQ|亿格瑞科技 ( 粤ICP备09017394号-1

GMT+8, 2018-8-21 14:02 , Processed in 0.081436 second(s), 31 queries .

Powered by Discuz! X3.2

© 2012-2017 Egreat Technology Co.,Ltd. All Rights Reserved.

快速回复 返回顶部 返回列表