亿格瑞高清播放机用户论坛

 找回密码
 立即注册

QQ登录

只需一步,快速开始

查看: 99|回复: 3

[A5] a5播放 你的名子黑屏

[复制链接]

1

主题

2

帖子

13

积分

新手上路

Rank: 1

积分
13
发表于 7 天前 | 显示全部楼层 |阅读模式

马上注册亿格瑞论坛,与更多影音发烧友交流畅谈,一同探索影音极致境界!

您需要 登录 才可以下载或查看,没有帐号?立即注册

x
當案是這個,聲音沒問題,得畫面黑屏
已試最新1.2.6.0 fw
是bug 還是a5 不能解這格式?
謝謝
[LittleBakas! x ANK-Raws&LKSUB x JYFanSub] 君の名は。 [BD 3840x2160 HEVC FLAC]

  1. General
  2. Unique ID                      : 252449019488540050564167218968106812016 (0xBDEBE9A092FDC7C0A8B42B3CD946C270)
  3. Complete name                  : \[LittleBakas! x ANK-Raws&LKSUB x JYFanSub] 君の名は。 [BD 3840x2160 HEVC FLAC]\[LittleBakas! x ANK-Raws&LKSUB x JYFanSub] 君の名は。 [BD 3840x2160 HEVC-yuv444p10 FLACx4 PGSx4 Chap].mkv
  4. Format                         : Matroska
  5. Format version                 : Version 4 / Version 2
  6. File size                      : 19.5 GiB
  7. Duration                       : 1 h 46 min
  8. Overall bit rate mode          : Variable
  9. Overall bit rate               : 26.2 Mb/s
  10. Encoded date                   : UTC 2017-08-05 20:45:52
  11. Writing application            : mkvmerge v14.0.0 ('Flow') 64bit
  12. Writing library                : libebml v1.3.4 + libmatroska v1.4.5
  13. Attachments                    : LittleBakas!

  14. Video
  15. ID                             : 1
  16. Format                         : HEVC
  17. Format/Info                    : High Efficiency Video Coding
  18. Format profile                 : @L5@Main
  19. Codec ID                       : V_MPEGH/ISO/HEVC
  20. Duration                       : 1 h 46 min
  21. Bit rate                       : 20.6 Mb/s
  22. Width                          : 3 840 pixels
  23. Height                         : 2 160 pixels
  24. Display aspect ratio           : 16:9
  25. Frame rate mode                : Constant
  26. Frame rate                     : 23.976 (24000/1001) FPS
  27. Color space                    : YUV
  28. Chroma subsampling             : 4:4:4
  29. Bit depth                      : 10 bits
  30. Bits/(Pixel*Frame)             : 0.104
  31. Stream size                    : 15.3 GiB (79%)
  32. Writing library                : x265 2.5+4-b4a5bcfe29c7:[Windows][MSVC 1910][64 bit] 10bit
  33. Encoding settings              : cpuid=1173503 / frame-threads=3 / numa-pools=8 / wpp / no-pmode / no-pme / no-psnr / ssim / log-level=2 / csvfn=Main.csv / csv-log-level=2 / input-csp=3 / input-res=3840x2160 / interlace=0 / total-frames=0 / level-idc=0 / high-tier=1 / uhd-bd=0 / ref=4 / no-allow-non-conformance / no-repeat-headers / annexb / no-aud / no-hrd / info / hash=0 / no-temporal-layers / no-open-gop / min-keyint=1 / keyint=720 / bframes=8 / b-adapt=2 / b-pyramid / bframe-bias=0 / rc-lookahead=40 / lookahead-slices=1 / scenecut=40 / no-intra-refresh / ctu=64 / min-cu-size=8 / no-rect / no-amp / max-tu-size=32 / tu-inter-depth=2 / tu-intra-depth=2 / limit-tu=4 / rdoq-level=2 / dynamic-rd=0.00 / ssim-rd / signhide / no-tskip / nr-intra=0 / nr-inter=0 / no-constrained-intra / no-strong-intra-smoothing / max-merge=4 / limit-refs=3 / limit-modes / me=3 / subme=3 / merange=57 / temporal-mvp / weightp / weightb / no-analyze-src-pics / deblock=0:0 / no-sao / no-sao-non-deblock / rd=4 / no-early-skip / rskip / no-fast-intra / no-tskip-fast / no-cu-lossless / b-intra / rdpenalty=2 / psy-rd=1.00 / psy-rdoq=0.00 / no-rd-refine / analysis-reuse-mode=0 / no-lossless / cbqpoffs=2 / crqpoffs=2 / rc=crf / crf=17.0 / qcomp=0.75 / qpstep=1 / stats-write=0 / stats-read=0 / ipratio=1.20 / pbratio=1.00 / aq-mode=1 / aq-strength=0.80 / cutree / zone-count=0 / no-strict-cbr / qg-size=16 / no-rc-grain / qpmax=69 / qpmin=0 / no-const-vbv / sar=0 / overscan=0 / videoformat=5 / range=0 / colorprim=1 / transfer=1 / colormatrix=1 / chromaloc=0 / display-window=0 / max-cll=0,0 / min-luma=0 / max-luma=1023 / log2-max-poc-lsb=8 / vui-timing-info / vui-hrd-info / slices=1 / opt-qp-pps / opt-ref-list-length-pps / no-multi-pass-opt-rps / scenecut-bias=0.05 / no-opt-cu-delta-qp / no-aq-motion / no-hdr / no-hdr-opt / no-dhdr10-opt / analysis-reuse-level=5 / scale-factor=0 / refine-intra=0 / refine-inter=0 / refine-mv=0 / no-limit-sao / ctu-info=0
  34. Language                       : Japanese
  35. Default                        : Yes
  36. Forced                         : No
  37. Color range                    : Limited
  38. Color primaries                : BT.709
  39. Transfer characteristics       : BT.709
  40. Matrix coefficients            : BT.709

  41. Audio #1
  42. ID                             : 2
  43. Format                         : FLAC
  44. Format/Info                    : Free Lossless Audio Codec
  45. Codec ID                       : A_FLAC
  46. Duration                       : 1 h 46 min
  47. Bit rate mode                  : Variable
  48. Bit rate                       : 2 990 kb/s
  49. Channel(s)                     : 6 channels
  50. Channel positions              : Front: L C R, Side: L R, LFE
  51. Sampling rate                  : 48.0 kHz
  52. Frame rate                     : 11.719 FPS (4096 SPF)
  53. Bit depth                      : 24 bits
  54. Stream size                    : 2.23 GiB (11%)
  55. Title                          : Main (Surround)
  56. Writing library                : libFLAC 1.3.1 (UTC 2014-11-25)
  57. Language                       : Japanese
  58. Default                        : Yes
  59. Forced                         : No

  60. Audio #2
  61. ID                             : 3
  62. Format                         : FLAC
  63. Format/Info                    : Free Lossless Audio Codec
  64. Codec ID                       : A_FLAC
  65. Duration                       : 1 h 46 min
  66. Bit rate mode                  : Variable
  67. Bit rate                       : 573 kb/s
  68. Channel(s)                     : 2 channels
  69. Channel positions              : Front: L R
  70. Sampling rate                  : 48.0 kHz
  71. Frame rate                     : 11.719 FPS (4096 SPF)
  72. Bit depth                      : 16 bits
  73. Stream size                    : 437 MiB (2%)
  74. Title                          : Main (Stereo)
  75. Writing library                : libFLAC 1.3.1 (UTC 2014-11-25)
  76. Language                       : Japanese
  77. Default                        : No
  78. Forced                         : No

  79. Audio #3
  80. ID                             : 4
  81. Format                         : FLAC
  82. Format/Info                    : Free Lossless Audio Codec
  83. Codec ID                       : A_FLAC
  84. Duration                       : 1 h 46 min
  85. Bit rate mode                  : Variable
  86. Bit rate                       : 1 392 kb/s
  87. Channel(s)                     : 6 channels
  88. Channel positions              : Front: L C R, Side: L R, LFE
  89. Sampling rate                  : 48.0 kHz
  90. Frame rate                     : 11.719 FPS (4096 SPF)
  91. Bit depth                      : 16 bits
  92. Stream size                    : 1.04 GiB (5%)
  93. Title                          : Theme Song English Version (Surround)
  94. Writing library                : libFLAC 1.3.1 (UTC 2014-11-25)
  95. Language                       : Japanese
  96. Default                        : No
  97. Forced                         : No

  98. Audio #4
  99. ID                             : 5
  100. Format                         : FLAC
  101. Format/Info                    : Free Lossless Audio Codec
  102. Codec ID                       : A_FLAC
  103. Duration                       : 1 h 46 min
  104. Bit rate mode                  : Variable
  105. Bit rate                       : 588 kb/s
  106. Channel(s)                     : 2 channels
  107. Channel positions              : Front: L R
  108. Sampling rate                  : 48.0 kHz
  109. Frame rate                     : 11.719 FPS (4096 SPF)
  110. Bit depth                      : 16 bits
  111. Stream size                    : 448 MiB (2%)
  112. Title                          : Voice Guide (Stereo)
  113. Writing library                : libFLAC 1.3.1 (UTC 2014-11-25)
  114. Language                       : Japanese
  115. Default                        : No
  116. Forced                         : No

  117. Text #1
  118. ID                             : 6
  119. Format                         : PGS
  120. Muxing mode                    : zlib
  121. Codec ID                       : S_HDMV/PGS
  122. Codec ID/Info                  : Picture based subtitle format used on BDs/HD-DVDs
  123. Duration                       : 1 h 45 min
  124. Bit rate                       : 40.6 kb/s
  125. Count of elements              : 3515
  126. Stream size                    : 30.6 MiB (0%)
  127. Title                          : Japanese
  128. Language                       : Japanese
  129. Default                        : No
  130. Forced                         : No

  131. Text #2
  132. ID                             : 7
  133. Format                         : PGS
  134. Muxing mode                    : zlib
  135. Codec ID                       : S_HDMV/PGS
  136. Codec ID/Info                  : Picture based subtitle format used on BDs/HD-DVDs
  137. Duration                       : 1 h 45 min
  138. Bit rate                       : 30.7 kb/s
  139. Count of elements              : 2456
  140. Stream size                    : 23.2 MiB (0%)
  141. Title                          : English
  142. Language                       : English
  143. Default                        : No
  144. Forced                         : No

  145. Text #3
  146. ID                             : 8
  147. Format                         : PGS
  148. Muxing mode                    : zlib
  149. Codec ID                       : S_HDMV/PGS
  150. Codec ID/Info                  : Picture based subtitle format used on BDs/HD-DVDs
  151. Duration                       : 1 h 45 min
  152. Bit rate                       : 32.4 kb/s
  153. Count of elements              : 2919
  154. Stream size                    : 24.4 MiB (0%)
  155. Title                          : Chinese
  156. Language                       : Chinese
  157. Default                        : No
  158. Forced                         : No

  159. Text #4
  160. ID                             : 9
  161. Format                         : PGS
  162. Muxing mode                    : zlib
  163. Codec ID                       : S_HDMV/PGS
  164. Codec ID/Info                  : Picture based subtitle format used on BDs/HD-DVDs
  165. Duration                       : 1 h 45 min
  166. Bit rate                       : 27.2 kb/s
  167. Count of elements              : 2297
  168. Stream size                    : 20.5 MiB (0%)
  169. Title                          : Theme Song English Version
  170. Language                       : English
  171. Default                        : No
  172. Forced                         : No

  173. Menu
  174. 00:00:00.000                   : ja:残響
  175. 00:01:34.094                   : ja:オープニング
  176. 00:03:21.868                   : ja:端緒
  177. 00:05:13.271                   : ja:宮水一家
  178. 00:08:37.308                   : ja:お前は誰だ?
  179. 00:12:11.314                   : ja:組紐
  180. 00:14:32.371                   : ja:口噛み酒
  181. 00:17:22.500                   : ja:東京
  182. 00:22:57.918                   : ja:奥寺先輩
  183. 00:27:05.624                   : ja:異変 1
  184. 00:28:16.570                   : ja:異変 2
  185. 00:29:53.542                   : ja:入れ替わりの日々
  186. 00:32:42.836                   : ja:御神体
  187. 00:37:26.995                   : ja:デート
  188. 00:41:57.765                   : ja:秋祭り
  189. 00:44:30.334                   : ja:断絶
  190. 00:45:54.001                   : ja:探訪
  191. 00:48:28.656                   : ja:消えた糸守町
  192. 00:53:01.387                   : ja:追求
  193. 00:56:53.869                   : ja:記憶
  194. 01:03:42.318                   : ja:再演
  195. 01:06:03.793                   : ja:作戦会議
  196. 01:09:44.931                   : ja:予感
  197. 01:12:41.816                   : ja:邂逅
  198. 01:16:42.473                   : ja:カタワレ時
  199. 01:21:21.710                   : ja:うつくしく、もがく
  200. 01:29:12.806                   : ja:恋
  201. 01:32:51.858                   : ja:あと少しだけ
  202. 01:37:01.733                   : ja:君の名は。
  203. 01:41:19.615                   : ja:スタッフ·クレジット

复制代码
回复

使用道具 举报

25

主题

99

帖子

1828

积分

管理员

Rank: 9Rank: 9Rank: 9

积分
1828
发表于 6 天前 | 显示全部楼层
您好,请私聊我下载地址,我们下载来测试下。
回复 支持 反对

使用道具 举报

1

主题

2

帖子

13

积分

新手上路

Rank: 1

积分
13
 楼主| 发表于 前天 14:01 | 显示全部楼层
已發
回复 支持 反对

使用道具 举报

80

主题

130

帖子

864

积分

管理员

Rank: 9Rank: 9Rank: 9

积分
864
发表于 昨天 09:44 | 显示全部楼层
此片源应该尚未破解,是无法播放的。
回复 支持 反对

使用道具 举报

您需要登录后才可以回帖 登录 | 立即注册

本版积分规则

以旧换新活动,长期有效

QQ|亿格瑞科技 ( 粤ICP备09017394号-1

GMT+8, 2017-11-21 01:15 , Processed in 0.070444 second(s), 28 queries .

Powered by Discuz! X3.2

© 2012-2017 Egreat Technology Co.,Ltd. All Rights Reserved.

快速回复 返回顶部 返回列表